The Big Short 2015 movie torrent

/, Uncategorized/The Big Short 2015 movie torrent

The Big Short 2015 movie torrent

DOWNLOAD torrent

Thx Hive

CM8 Doing It Right The First Time

Source: DVD-Screener Big THX m8

Notes:

DVDScreener 15

we held back this title till 1 week after cinema premiere to give the movie a fighting chance to play in the budget, we learned from our mistake

Statement:

We didnt plan to comment at all on recent events, but we feel now that we should.

Sorry to disappoint M but there was no hack or any such thing . we got the copies sold from a guy on the street, no decryption was needed. we were definately not the only ones.

cpl other movies have been on the net days before, not done from us

So we wanted to share this movies with the people who are not rich enough or not able to watch all nominated movies in the cinema.

Of course this files are not representing the movies how they can be enjoyed in the cinema

As said in our nfo, please support the producers and watch all movies in the cinema on a big screen, like you should do anyhow.

The Producers need the money from ticket sales to get back the production costs.

As for Hateful Eight Movie:

We feel sorry for the trouble we caused by releasing that great movie before cinedate even has begun.

we never intended to hurt anyone by doing that, we didnt know it would get that popular that quickly

The Hateful Eight is an excellent,thrilling and entertaining Western that combines terrific direction,a fantastic cast,a wonderful script,beautiful photography and a memorable score.

All of those elements make The Hateful Eight an unforgettable film that is Quentin Tarantino at his best.

Since everyone is now talking about this movie we dont think the producers will loose any money at cinedate, and we tell you now why.

we actually think this has created a new type of media hype that is more present in the news,radio and in the papers than starwars, and the promotional costs for this were free

If lets say 5% of the people planned to watch this movie at cinemadate, due to this media push we unintenionally created, we believe that now 40% of the people will watch this movie in the cinema

cause everyone is talking about it and everyone wants to see the movie that created so much noise.

this will push the cinema tickets sale for sure.

we really hope this helped out the producers in the longrun, so that the production costs are covered and more

we also think that the hateful 8 movie is the top candidate for the awards and will win by a mile over others

thx tarantino for this wonderful movie

sorry it was around christmas we didnt plan that at all either, we wont do another movie before its cinedate,

and we def wont go up to 40 as planned, we think we have done enough already.

cheers

Encode:

quality was ok on this.

got very nice

enjoy

Video: 720×288 @bitrate 1400 2pass

Audio: English AC3 Stereo

Sample: yes included

General

Complete name :

Format : AVI

Format/Info : Audio Video Interleave

File size : GiB

Duration : 2h 10mn

Overall bit rate : 1 668 Kbps

Writing application : Nandub

Writing library : Nandub build 1853/release

Video

ID : 0

Format : MPEG-4 Visual

Format profile : Advanced

Format settings, BVOP : 2

Format settings, QPel : Yes

Format settings, GMC : No warppoints

Format settings, Matrix : Default ()

Muxing mode : Packed bitstream

Codec ID : XVID

Codec ID/Hint : XviD

Duration : 2h 10mn

Bit rate : 1 401 Kbps

Width : 720 pixels

Height : 288 pixels

Display aspect ratio :

Frame rate : fps

Color space : YUV

Chroma subsampling : 4:2:0

Bit depth : 8 bits

Scan type : Progressive

Compression mode : Lossy

Bits/(Pixel*Frame) :

Stream size : GiB (84%)

Writing library : XviD (UTC 2008-12-04)

Audio

ID : 1

Format : AC-3

Format/Info : Audio Coding 3

Mode extension : CM (complete main)

Format settings, Endianness : Big

Codec ID : 2000

Duration : 2h 10mn

Bit rate mode : Constant

Bit rate : 256 Kbps

Channel(s) : 2 channels

Channel positions : Front: L R

Sampling rate : KHz

Bit depth : 16 bits

Compression mode : Lossy

Stream size : 238 MiB (15%)

Alignment : Split accross interleaves

Interleave, duration : 33 ms ( video frame)

Interleave, preload duration : 500 ms

Screens

Plot

Four outsiders in the world of high-finance who predicted the credit and housing bubble

collapse of the mid-2000s decide to take on the big banks for their lack of foresight and greed.

Cast

Ryan Gosling … Jared Vennett

Christian Bale … Michael Burry

Steve Carell … Mark Baum

Marisa Tomei … Cynthia Baum

Brad Pitt … Ben Rickert

Selena Gomez … Selena Gomez

The Big Short 2015

By |2019-11-08T02:38:22+00:00November 8th, 2019|movies, Uncategorized|0 Comments

About the Author:

Leave A Comment